The Nines 2007 720p BrRip x265 HEVCBay Torrent Free Download

Seeders : 419   &   Leechers : 611      11-02-2019 (6 days)
The Nines 2007 720p BrRip x265 HEVCBay Torrent Download
Added: ago by g3m696 ***** in Movies   375.5 MB   Hits : 14
Info Hash: FC7C7BAF239CC750E06C7DBDDFFAA8F9166CCD06 Download
The Nines 2007 720p BrRip x265 HEVCBay Torrent Download

Anonymous and Direct Download movies , software , shows...

Fast Safe Anonymous
movies, software, shows...
The Nines
Drama /Fantasy /Mystery /Sci-Fi /Thriller  .   100 min   6.4/10
Director : John August  
Writer: John August  
Tags: The  Nines  2007  720p  BrRip  x265  

Released:
30 Nov 2007
Gary, an actor who plays a cop on television, uses too much lighter fluid when he burns his ex-girlfriend's things, then he drinks and drives, uses crack, and crashes his car. He sobers up in jail and is placed under house arrest and the watchful eye of a publicist.... See More , the cheery and tough-minded Margaret. She moves him into the empty house of a writer who's away in Canada on a shoot. Gary meets Sarah, an attractive and seemingly-willing neighbor. His friendship with Margaret blooms and strange things happen: he finds notes he doesn't remember writing, he hears noises, and he seems to bump into himself in the kitchen. Two remaining chapters reveal what's going on.

Torrent Description



hevcbay.com

Code:

General
Unique ID : 16971461798630290947972555691883675106 (0xCC495AB7A6F501947C4A862C92EBDE2)
Complete name : The.Nines.2007.720p.BrRip.x265.HEVCBay.com.mkv
Format : Matroska
Format version : Version 4
File size : 375 MiB
Duration : 1 h 39 min
Overall bit rate : 527 kb/s
Movie name : The.Nines.2007.720p.BrRip.x265.HEVCBay.com.mkv
Encoded date : UTC 2019-02-11 01:01:35
Writing application : hevcbay
Writing library : hevcbay.com / Lavf58.22.100
Comment : Encoded by hevcbay.com
ENCODED-BY : hevcbay.com

Video
ID : 1
Format : HEVC
Format/Info : High Efficiency Video Coding
Format profile : [email protected]@Main
Codec ID : V_MPEGH/ISO/HEVC
Duration : 1 h 39 min
Bit rate : 474 kb/s
Width : 1 280 pixels
Height : 694 pixels
Display aspect ratio : 1.85:1
Original display aspect ratio : 1.85:1
Frame rate mode : Constant
Frame rate : 23.976 (23976/1000) FPS
Color space : YUV
Chroma subsampling : 4:2:0
Bit depth : 8 bits
Bits/(Pixel*Frame) : 0.022
Stream size : 338 MiB (90%)
Writing library : Lavc58.40.100 libx265
Default : Yes
Forced : No
Color range : Limited

Audio
ID : 2
Format : AAC LC SBR PS
Format/Info : Advanced Audio Codec Low Complexity with Spectral Band Replication and Parametric Stereo
Commercial name : HE-AACv2
Format settings : NBC
Codec ID : A_AAC-29
Duration : 1 h 39 min
Bit rate : 51.4 kb/s
Channel(s) : 2 channels
Channel layout : C
Sampling rate : 48.0 kHz
Frame rate : 23.438 FPS (2048 SPF)
Compression mode : Lossy
Delay relative to video : -148 ms
Stream size : 36.6 MiB (10%)
Writing library : Lavc58.40.100 libfdk_aac
Default : Yes
Forced : No










Sharing Widget


No Comments For This Torrent . Be The First to Comment

You must Login to Comment . Click Here to Login

Menu 1

Some content in menu 1.

The Nines 2007 720p BrRip x265 HEVCBay (Size: 375.5 MB)
  The Nines 2007 720p BrRip x265 HEVCBay 375.5 MB
tracker name
udp://tracker.leechers-paradise.org:6969/announce
udp://zer0day.ch:1337/announce
udp://open.demonii.com:1337/announce
udp://tracker.coppersurfer.tk:6969/announce
udp://exodus.desync.com:6969/announce
µTorrent compatible trackers list

Relative Torrents

Torrent Name Size Age SEED LEECH
George Clarkes Amazing Spaces S08E07 720 HDTV x264-PLUTONiUM [eztv]
Posted by    EZTVag   in   TV
998.8 MB 14 minutes 138 854
WWE Elimination Chamber (2019) 720p PPV EBRip x264 1 6GB - MkvHub
Posted by    MkvHub   in   TV
1.6 GB 19 minutes 629 432
My Kitchen Rules S10E13 720p HDTV x264-OENJI [eztv]
Posted by    EZTVag   in   TV
957.8 MB 24 minutes 733 298
Vanilla Sky (2001) BRRip Dual Audios [ HN , ENG ] Eng Sub mkv
Posted by    krishh1337   in   Movies
812.7 MB 27 minutes 84 557
Top Cat-The Movie (2011) 720p HDRip - Orginal Auds [Hindi + Telugu - Tamil] 800
Posted by    ictv   in   Movies
816.9 MB 30 minutes 24 980